<?xml version="1.0" standalone="no"?>
<!DOCTYPE svg PUBLIC "-//W3C//DTD SVG 1.1//EN" "http://www.w3.org/Graphics/SVG/1.1/DTD/svg11.dtd">
<svg xmlns="http://www.w3.org/2000/svg"><defs><font id="flaticon" horiz-adv-x="512"><font-face units-per-em="512" ascent="448" descent="-64" x-height="240" cap-height="480"/><missing-glyph horiz-adv-x="512"/><glyph unicode="&#xE000;" glyph-name="collapse3" horiz-adv-x="512" d="M512.00540826027 80.811577057146l-7.2362522446393 -8.0366747649731L256 296.66606105419L7.2308439843667 72.774902292173L0 80.811577057146L256 311.22509770783L512.00540826027 80.811577057146z"/><glyph unicode="&#xE001;" glyph-name="down44" horiz-adv-x="478" d="M478.15771428571 448v-256c0 -87.382857142857 -71.090285714286 -158.47314285714 -158.47314285714 -158.47314285714H149.01485714286V-64L0 42.642285714286l149.01942857143 106.688v-97.517714285714h170.66514285714 c77.293714285714 0 140.18742857143 62.889142857143 140.18742857143 140.18742857143V448H478.15771428571z"/><glyph unicode="&#xE002;" glyph-name="down45" horiz-adv-x="478" d="M329.14742857143 -64V33.526857142857H158.47771428571C71.094857142857 33.526857142857 0 104.61714285714 0 192V448h18.285714285714v-256c0 -77.298285714286 62.889142857143 -140.18742857143 140.192 -140.18742857143h170.66971428571V149.33028571429 l149.01028571429 -106.688L329.14742857143 -64z"/><glyph unicode="&#xE003;" glyph-name="expand22" horiz-adv-x="512" d="M512 303.18842294285L256 72.774902292173L0 303.18842294285l7.2362522446393 8.0366747649731l248.76374775536 -223.88034224147l248.76374775536 223.88034224147L512 303.18842294285z"/><glyph unicode="&#xE004;" glyph-name="left126" horiz-adv-x="512" d="M13.781779518445 -50.218220481555h443.31850176983v-13.781779518445H0V393.10028128827h13.781779518445V-50.218220481555L13.781779518445 -50.218220481555zM512.00689088976 438.26317277022L502.26317277022 448L14.463977604608 -39.792304275851l9.7437181195408 -9.7437181195408L512.00689088976 438.26317277022z"/><glyph unicode="&#xE005;" glyph-name="left127" horiz-adv-x="548" d="M548.24276262955 -44.424796359325v-19.580098665341H274.12138131477c-93.568396496998 0 -169.69582010784 76.122528586179 -169.69582010784 169.69092508318V288.43688095147H0L114.19603044093 448l114.24008566293 -159.5680140732H124.01055489694v-182.74595586829 c0 -82.765077058396 67.340854334774 -150.11082641784 150.1157214425 -150.11082641784H548.24276262955z"/><glyph unicode="&#xE006;" glyph-name="left128" horiz-adv-x="512" d="M457.09339039851 434.21822048155H13.781779518445v-443.31161088007H0V448h457.10028128827V434.21822048155zM24.207695724149 433.53602239539L14.463977604608 423.79230427585l487.79919516561 -487.79919516561l9.7437181195408 9.7437181195408L24.207695724149 433.53602239539z"/><glyph unicode="&#xE007;" glyph-name="left129" horiz-adv-x="548" d="M548.24276262955 448v-19.580098665341H274.12138131477C191.34651420704 428.41990133466 124.00565987227 361.07904699989 124.00565987227 278.30417989216v-182.75085089296h104.42556120693l-114.24008566293 -159.55822402386L0 95.553328999197h104.42556120693V278.30417989216 C104.42556120693 371.87257638915 180.54808979311 448 274.12138131477 448H548.24276262955z"/><glyph unicode="&#xE008;" glyph-name="next15" horiz-adv-x="238" d="M238.44478715538 192L8.0366747649731 -64.005408260273L0 -56.769156015633l223.88034224147 248.76915601563L-0.0054082602725256 440.76915601563L8.0312665047005 448L238.44478715538 192z"/><glyph unicode="&#xE009;" glyph-name="previous11" horiz-adv-x="238" d="M14.553628393366 192l223.89115876202 -248.76374775536l-8.0366747649731 -7.2362522446393L0 192L230.40811239041 448l8.0366747649731 -7.2362522446393L14.553628393366 192z"/><glyph unicode="&#xE00A;" glyph-name="right103" horiz-adv-x="512" d="M512.00689088976 448v-457.09339039851h-13.781779518445V434.21822048155H54.906609601486V448H512.00689088976zM0 -54.256281880459l9.7437181195408 -9.7437181195408L497.54291328515 423.79230427585l-9.7437181195408 9.7437181195408L0 -54.256281880459z"/><glyph unicode="&#xE00B;" glyph-name="right104" horiz-adv-x="512" d="M512.00689088976 393.09339039851v-457.10028128827H54.906609601486v13.781779518445h443.31850176983V393.09339039851H512.00689088976zM497.53602239539 -39.792304275851L9.7368272297816 448.00689088976L0 438.26317277022l487.79230427585 -487.79919516561L497.53602239539 -39.792304275851z"/><glyph unicode="&#xE00C;" glyph-name="right105" horiz-adv-x="512" d="M414.47314285714 85.330285714286V256C414.47314285714 343.38285714286 343.38285714286 414.47771428571 256 414.47771428571H0v-18.285714285714h256c77.298285714286 0 140.18742857143 -62.889142857143 140.18742857143 -140.192v-170.66971428571H298.66971428571 l106.688 -149.01028571429L512 85.330285714286H414.47314285714z"/><glyph unicode="&#xE00D;" glyph-name="right106" horiz-adv-x="562" d="M562.43427232525 191.99729806748L306.43697425776 -64l-7.6410651524587 7.6410651524587l248.35623291503 248.35623291503L298.7959091053 440.35893484754L306.43697425776 448L562.43427232525 191.99729806748zM540.9917358861 197.40116309751H0v-10.807730060055 h540.9917358861V197.40116309751z"/><glyph unicode="&#xE00E;" glyph-name="right107" horiz-adv-x="548" d="M443.81230639795 288.43688095147v-182.74595586829c0 -93.568396496998 -76.122528586179 -169.69092508318 -169.69092508318 -169.69092508318H0v19.580098665341h274.12138131477c82.769972083062 0 150.11082641784 67.34574935944 150.11082641784 150.11082641784V288.43688095147H319.81154155035 L434.05162721328 448L548.24276262955 288.43688095147H443.81230639795z"/><glyph unicode="&#xE00F;" glyph-name="thin35" horiz-adv-x="562" d="M15.287534169947 191.99729806748l248.35623291503 -248.35082905l-7.6410651524587 -7.6410651524587L0 191.99729806748L256.00270193252 448l7.6410651524587 -7.6410651524587L15.287534169947 191.99729806748zM21.437132574118 197.40116309751v-10.807730060055h540.99713975113v10.807730060055H21.437132574118z"/><glyph unicode="&#xE010;" glyph-name="thin36" horiz-adv-x="466" d="M466.09315910838 169.04166026134L233.05149884704 -64L0 169.04166026134l6.9558800922367 6.9558800922367l226.0956187548 -226.0857801691l226.0857801691 226.0857801691L466.09315910838 169.04166026134zM237.97079169869 448h-9.8385857033051v-492.48024596464h9.8385857033051V448z"/><glyph unicode="&#xE011;" glyph-name="up76" horiz-adv-x="478" d="M478.15771428571 192v-256h-18.285714285714V192c0 77.302857142857 -62.893714285714 140.192 -140.18742857143 140.192H149.01485714286v-97.522285714286L0 341.35314285714L149.01485714286 448v-97.522285714286h170.66514285714 C407.06742857143 350.47771428571 478.15771428571 279.38285714286 478.15771428571 192z"/><glyph unicode="&#xE012;" glyph-name="up77" horiz-adv-x="466" d="M466.07928364174 214.95789857997l-6.9557464306989 -6.9557464306989L233.04210142003 434.07866874195L6.9606656290233 208.00215214927L0 214.95789857997L233.04210142003 448L466.07928364174 214.95789857997zM228.12290309564 -64h9.8383966487961V428.48554024711h-9.8383966487961 V-64z"/><glyph unicode="&#xE013;" glyph-name="up78" horiz-adv-x="478" d="M329.14742857143 234.66514285714V332.192H158.47771428571C81.174857142857 332.192 18.285714285714 269.30285714286 18.285714285714 192v-256H0V192c0 87.382857142857 71.090285714286 158.47771428571 158.47771428571 158.47771428571h170.66971428571V448 l149.01028571429 -106.64685714286L329.14742857143 234.66514285714z"/></font>
</defs>
</svg>
